The Silencing 2020 WEBRip 1080p

Torrent Details


The Silencing 2020 WEBRip 1080p

NAME
The Silencing 2020 WEBRip 1080p.torrent
CATEGORY
Movies
INFOHASH
96f1bd8a554b7e0ebf57242a9985ab3d58c32d36
SIZE
4.1 GB in 1 file
ADDED
Uploaded on 21-07-2020 by our crawler pet called "Spidey".
SWARM
101 seeders & 8 peers
RATING
No votes yet.

Please login to vote for this torrent.


Description

Информация о фильме

Название: Бесшумный

Оригинальное название: The Silencing

Год выхода: 2020

Жанр: Боевик, триллер, криминал





Режиссер: Робин Пронт





В ролях: Николай Костер-Вальдау, Аннабелль Уоллис, Зан Маккларнон, Мелани Скрофано, Хиро Файнс-Тиффин, Джош Круддас, Даниэль Райан, Kayla Dumont, Даина Барбо, Шон Смит





О фильме:

Мужчина с тяжелым прошлым живёт в уединении в лесу, когда на местности начинают находить девушек, убитых необычным способом. Он объединяется с шерифом, пытается выследить маньяка и вскоре начинает подозревать, что тот несколько лет назад похитил его дочь.











Страна: Канада, США

Продолжительность: 01:34:20

Перевод: Профессиональный (многоголосый закадровый) | HDRezka Studio





Файл

Кодек: x.264

Качество: WEBRip 1080p

Видео: AVC, 1920x800 (2.40:1), 23.976 fps, 5 816 kb/s

Аудио 1: AC-3, 48.0 kHz, 2 ch, 192 kb/s | RUS

Аудио 2: AC-3, 44.1 kHz, 2 ch, 192 kb/s | ENG

Субтитры: Русские (форс.)



Сэмпл



Рекламы нет



MIGeneral

Unique ID : 201276228139480999206981566728528742100 (0x976C6438792AD6B7BF672B0E7E2446D4)

Complete name : The.Silencing.2020.WEBRip.1080p.mkv

Format : Matroska

Format version : Version 4

File size : 4.09 GiB

Duration : 1 h 34 min

Overall bit rate : 6 202 kb/s

Movie name : Theseus

Encoded date : UTC 2020-07-21 18:46:24

Writing application : mkvmerge v8.3.0 ('Over the Horizon') 64bit

Writing library : libebml v1.3.1 + libmatroska v1.4.2



Video

ID : 1

Format : AVC

Format/Info : Advanced Video Codec

Format profile : [email protected]

Format settings : CABAC / 4 Ref Frames

Format settings, CABAC : Yes

Format settings, ReFrames : 4 frames

Codec ID : V_MPEG4/ISO/AVC

Duration : 1 h 34 min

Bit rate : 5 816 kb/s

Width : 1 920 pixels

Height : 800 pixels

Display aspect ratio : 2.40:1

Frame rate mode : Constant

Frame rate : 23.976 (23976/1000) FPS

Color space : YUV

Chroma subsampling : 4:2:0

Bit depth : 8 bits

Scan type : Progressive

Bits/(Pixel*Frame) : 0.158

Stream size : 3.83 GiB (94%)

Default : Yes

Forced : No



Audio #1

ID : 2

Format : AC-3

Format/Info : Audio Coding 3

Commercial name : Dolby Digital

Codec ID : A_AC3

Duration : 1 h 34 min

Bit rate mode : Constant

Bit rate : 192 kb/s

Channel(s) : 2 channels

Channel layout : L R

Sampling rate : 48.0 kHz

Frame rate : 31.250 FPS (1536 SPF)

Bit depth : 16 bits

Compression mode : Lossy

Stream size : 130 MiB (3%)

Title : MVO (HDRezka Studio)

Language : Russian

Service kind : Complete Main

Default : Yes

Forced : No



Audio #2

ID : 3

Format : AC-3

Format/Info : Audio Coding 3

Commercial name : Dolby Digital

Codec ID : A_AC3

Duration : 1 h 34 min

Bit rate mode : Constant

Bit rate : 192 kb/s

Channel(s) : 2 channels

Channel layout : L R

Sampling rate : 44.1 kHz

Frame rate : 28.711 FPS (1536 SPF)

Bit depth : 16 bits

Compression mode : Lossy

Stream size : 130 MiB (3%)

Language : English

Service kind : Complete Main

Default : No

Forced : No



Text

ID : 4

Format : UTF-8

Codec ID : S_TEXT/UTF8

Codec ID/Info : UTF-8 Plain Text

Duration : 1 h 22 min

Bit rate : 2 b/s

Count of elements : 29

Stream size : 1.56 KiB (0%)

Title : Forced

Language : Russian

Default : Yes

Forced : YesСкриншоты

Discussion

Comments 0

Post Your Comment

Files in this torrent

FILENAMESIZE
The.Silencing.2020.WEBRip.1080p.mkv4.1 GB

Alternative Torrents for 'Silencing'.

TORRENT NAMEADDEDSIZESEEDSPEERSHEALTH
7/27/20204 GB60351
7/21/20204.1 GB1018
7/29/2020877 MB9013
Yesterday11.4 GB62109
7/27/20201.8 GB5914
Yesterday10.7 GB5862
Yesterday12.1 GB4958
7/31/20202.1 GB422
8/2/202012.4 GB4118
7/23/2020744 MB393
7/21/20201.4 GB393
7/30/202016.2 GB3622
7/25/2020612 MB363
7/27/20201.9 GB351
7/23/20201.1 GB340